Megalabo

Passengers 2016 x264 License Torrent Download

Passengers 2016 x264 License Torrent Download

Passengers 2016 x264

50 Seeds 21 Peers

Download Virus free

HDCAM PC X264

AAC audio english

Video removed from the light-dark @ 100%

screenshot

specifications

Source: HDCAM Unknovn @ (No)

Format: Matroska

File Size: MiB

Duration: 1 H 47 min

Lorem bit rate: 1817 kb / s

Video

Format: MPEG

Format / Info: Advanced Video cod

formatProfile: / * /

Format settings, CABAC: Yes

Format settings, reframe: 16 tablets

Cod ID: V_MPEG4 / ISO / AVC

Duration: 1 H 47 min

Bit rate: 1687 kb / s

Width: 720 pixels

height: 308 pixels

display sistemahitsura: 1

variableframe rate mode

Frame rate: (25000/1001) Although the

Color space: the IUD

Colorimetri: 4: 2: 0

Bit depth: 8 bits

Scan Type: House

Bits / (Pixel * Frame)

Stream size: MiB (93%)

English

Default: Yes

No forced

Color range: Limited

Standard Colours: Audio

A translation exists: the ratio b, 500 reason

Matrix coefficients:

Audio # 1

AAC format

Format / Info: Advanced AudioCodec

Profile Format: LK

codecID: A_AAC

Duration: 1 H 47 min

Bit Rate: 128 MB / s

cost (S): 2 channels

costplace: Front: l

Sampling: kHz,

Although the frame rate (SPF 1024)

Compression: Lossy

A video with respect to the delay in MS 9

Stream size: MiB (7%)

English

Default: Yes

No forced

chapter in NEMA

and comprehended

Properly DDR Coding

In the intimacy of their journey through space and two passengers were sleeping suspended animation, woke up 90 years of defeats ship kadanjihov premature. Moving the rest of your life on board cumluxuriaC. and always can ask for in the morning, that they have to fall, you may be denied by no one, so far as the ship is in great danger, until he found. The 5.000 passengers and a man in the question about life, Jim, and Dawn could not be one, but only them.

Rating 43 1


Pubblicato

in

da

Tag:

Su questo sito utilizziamo strumenti nostri o di terze parti che memorizzano piccoli file (cookie) sul tuo dispositivo. I cookie sono normalmente usati per permettere al sito di funzionare correttamente (cookie tecnici), per generare statistiche di uso\/navigazione (cookie statistici) e per pubblicizzare opportunamente i nostri servizi\/prodotti (cookie di profilazione). Possiamo usare direttamente i cookie tecnici,
ma hai il diritto di scegliere se abilitare o meno i cookie statistici e di profilazione.
Abilitando questi cookie, ci aiuti ad offrirti una esperienza migliore con noi.. Cookie policy